Monday, February 7, 2011

The Next Three Days (2010)

The Next Three Days

Video: 640x380 @bitrate 1200 2pass
Audio: English AC3 2.0 Stereo
Sample: yes included


removed interlace,corrected aspect to the only right 4:3 resolution 640x480.
added brightness,sharpness,rgb,chroma and denoise. cleaned audiotrack from hiss,hum etc.
still the original video suffered from pixelation in movement scenes probably because of the lower recorded framerate of 29000 instead of 29970 which looks like missing frames. cant do anything about that. still good watchable


Complete name : The.Next.Three.Days.2010.PPVRiP.XVID.AC3.Hive-CM8.avi
Format : AVI
Format/Info : Audio Video Interleave
File size : 1.27 GiB
Duration : 2h 4mn
Overall bit rate : 1 466 Kbps
Writing application : Nandub v1.0rc2
Writing library : Nandub build 1853/release

ID : 0 Format : MPEG-4 Visual Format profile : Advanced Simple@L5 Format settings, BVOP : Yes Format settings, QPel : Yes Format settings, GMC : No warppoints Format settings, Matrix : Default (H.263) Muxing mode : Packed bitstream Codec ID : XVID Codec ID/Hint : XviD Duration : 2h 4mn Bit rate : 1 198 Kbps Width : 640 pixels Height : 480 pixels Display aspect ratio : 4:3 Frame rate : 29.970 fps Color space : YUV Chroma subsampling : 4:2:0 Bit depth : 8 bits Scan type : Progressive Bits/(Pixel*Frame) : 0.130 Stream size : 1.04 GiB (82%) Writing library : XviD 1.2.1 (UTC 2008-12-04)
ID : 1 Format : AC-3 Format/Info : Audio Coding 3 Mode extension : CM (complete main) Codec ID : 2000 Duration : 2h 4mn Bit rate mode : Constant Bit rate : 256 Kbps Channel(s) : 2 channels Channel positions : Front: L R Sampling rate : 48.0 KHz Bit depth : 16 bits Stream size : 227 MiB (17%) Alignment : Split accross interleaves Interleave, duration : 33 ms (1.00 video frame) Interleave, preload duration : 500 ms

Russell Crowe ... John Brennan Elizabeth Banks ... Lara Brennan Michael Buie ... Mick Brennan Moran Atias ... Erit Remy Nozik ... Jenna Toby Green ... Three Year Old Luke Tyler Green ... Three Year Old Luke Jason Beghe ... Detective Quinn Aisha Hinds ... Detective Collero

Lara Brennan is arrested for murdering her boss whom she had an argument with.
It seems she was seen leaving the scene of the crime and her fingerprints were
on the murder weapon. Her husband, John would spend the next few years trying to
get her released but there's no evidence that negates the evidence against her.
And when the strain of being separated from her family especially her son gets to her,
John decides to break her out. So he does a lot of research to find a way.

The Fighter (2010)poster

The Next Three Days (2010)DOWNLOADING SERVERS

Download Torrent Minor:

Direct Download:402.58 MB

Single Link:-

Multiupload links аrе uploading аt thе moment

Mediafire Links :-

Pаrt 1



Uѕе HJ-Join tο join thе files


Post a Comment

We Respect Your Opinions